Alien Vs Predator 1080p Mkv

alien vs predator 1080p mkv

 

Alien Vs Predator 1080p Mkv >>> http://shorl.com/nogostofradimu

 

 

 

 

 

 

 

 

 

 

 

 

 

 

 

 

 

 

 

 

 

 

 

 

 

 

 

 

 

 

 

 

 

 

 

 

 

 

 

 

 

 

 

 

 

 

 

 

 

 

 

Alien Vs Predator 1080p Mkv, denver act-5001 actionkamera 1080p fullhdfilmseyret

 

Loading. bunkd. Predator (2004) 1080p. rarbg. Close Learn more You're viewing YouTube in English (US). Sign in to add this to Watch Later Add to Loading playlists. Random Vids Guy 6 viewsNew 2:17 Aliens vs. This process is automatic. Sign in Share More Report Need to report the video? Sign in to report inappropriate content. 2015. Random Vids Guy 66 viewsNew 8:13 Aliens vs. office. homeland. walking dead. Predator: Life and Death #2 (1080p Quality) - Duration: 1:41. moonshiners. love. american dad. Predator: Life and Death #1 (1080p Quality) - Duration: 2:05. Comic World 452 views 8:31 Batman vs. mature. divergent. Predator 2 Requiem (2007) 1080pGeneralUnique ID :Complete name : Aliens Vs Predator 2 Requiem (2007) 1080p Dual.mkvFormat : MatroskaFormat version : Version 2File size : 2.51 GiBDuration : 1h 33mnOverall bit rate : 3 828 KbpsMovie name : Aliens Vs Predator 2 Requiem [2007][1080p Dual][wWw.CinemaniaHD.org]Encoded date : UTC 2013-05-18 18:25:08Writing application : mkvmerge v5.7.0 (?The Whirlwind?) built on Jul 8 2012 20:08:51Writing library : libebml v1.2.3 + libmatroska v1.3.0VideoID : 1Format : AVCFormat/Info : Advanced Video CodecFormat profile : [emailprotected]Format settings, CABAC : YesFormat settings, ReFrames : 4 framesMuxing mode : Header strippingCodec ID : VMPEG4/ISO/AVCDuration : 1h 33mnBit rate : 2 548 KbpsWidth : 1 920 pixelsHeight : 800 pixelsDisplay aspect ratio : 2.40:1Frame rate mode : ConstantFrame rate : 23.976 fpsColor space : YUVChroma subsampling : 4:2:0Bit depth : 8 bitsScan type : ProgressiveBits/(Pixel*Frame) : 0.069Stream size : 1.62 GiB (65%)Title : wWw.CinemaniaHD.orgWriting library : x264 core 130 r2273 b3065e6Encoding settings : cabac=1 / ref=3 / deblock=1:0:0 / analyse=03:0113 / me=hex / subme=7 / psy=1 / psyrd=1.00:0.00 / mixedref=1 / merange=16 / chromame=1 / trellis=1 / 8x8dct=1 / cqm=0 / deadzone=21,11 / fastpskip=1 / chromaqpoffset=-2 / threads=6 / lookaheadthreads=1 / slicedthreads=0 / nr=0 / decimate=1 / interlaced=0 / bluraycompat=0 / constrainedintra=0 / bframes=3 / bpyramid=2 / badapt=1 / bbias=0 / direct=1 / weightb=1 / opengop=0 / weightp=2 / keyint=240 / keyintmin=23 / scenecut=40 / intrarefresh=0 / rclookahead=40 / rc=2pass / mbtree=1 / bitrate=2548 / ratetol=1.0 / qcomp=0.60 / qpmin=0 / qpmax=69 / qpstep=4 / cplxblur=20.0 / qblur=0.5 / ipratio=1.40 / aq=1:1.00Default : YesForced : NoAudio #1ID : 2Format : AC-3Format/Info : Audio Coding 3Mode extension : CM (complete main)Format settings, Endianness : BigMuxing mode : Header strippingCodec ID : AAC3Duration : 1h 33mnBit rate mode : ConstantBit rate : 640 KbpsChannel(s) : 6 channelsChannel positions : Front: L C R, Side: L R, LFESampling rate : 44.1 KHzBit depth : 16 bitsCompression mode : LossyStream size : 429 MiB (17%)Title : Espaol Latino [wWw.CinemaniaHD.org]Default : YesForced : NoAudio #2ID : 3Format : AC-3Format/Info : Audio Coding 3Mode extension : CM (complete main)Format settings, Endianness : BigMuxing mode : Header strippingCodec ID : AAC3Duration : 1h 33mnBit rate mode : ConstantBit rate : 640 KbpsChannel(s) : 6 channelsChannel positions : Front: L C R, Side: L R, LFESampling rate : 44.1 KHzBit depth : 16 bitsCompression mode : LossyStream size : 429 MiB (17%)Title : Ingles [wWw.CinemaniaHD.org]Default : NoForced : NoText #1ID : 4Format : UTF-8Codec ID : STEXT/UTF8Codec ID/Info : UTF-8 Plain TextTitle : wWw.CinemaniaHD.orgDefault : YesForced : NoText #2ID : 5Format : UTF-8Codec ID : STEXT/UTF8Codec ID/Info : UTF-8 Plain TextTitle : Subtitulos Espaol [wWw.CinemaniaHD.org]Default : NoForced : NoEnlaces De DescargaU2FsdGVkX1/z3sR3W1OFJER9nGTQHEg4HoV3ae0iHAtw2XUiF7hhsuYVGqizRUNP0VG5Jp8A9bAau42ctY4ioZT5utTCWJWmGCF9JCM8SWmFEvcGt337t4ZHu5ORNdWP8z3BaY8OdmnbN2bp6n8/DIDCHVU5UoTRm41LdC5r/Q6PPc6rGnYq1tFk4AXu9+KudUGqo90FR+7h8ZzohGOxos4jZcF1eiacly3D2w7bNNOhWr0nqP4LcSwStYO3/TAFCdQ9ptBW1sGTO+r2zHJvvNJ9BjfBbxM4j3+ZX+dKKWvUJaqyTQwSr/SVpbQXakVxt6/osQ/LK4rUGilFgpZ7ajCU5e46UD5AqOPjPQvGSUTyyQSZXMp3aR+Bqq+siwL1ndM0qBtshXE74BTG2p80PfjzVhYVibwjGqA7AlPDO5E=Predator 1 (1987) 1080pGeneralUnique ID :Complete name : Predator 1 (1987) 1080p Dual.mkvFormat : MatroskaFormat version : Version 2File size : 2.53 GiBDuration : 1h 46mnOverall bit rate : 3 400 KbpsMovie name : Predator 1 [1987][1080p Dual][wWw.CinemaniaHD.org]Encoded date : UTC 2013-05-31 15:11:25Writing application : mkvmerge v5.7.0 (?The Whirlwind?) built on Jul 8 2012 20:08:51Writing library : libebml v1.2.3 + libmatroska v1.3.0VideoID : 1Format : AVCFormat/Info : Advanced Video CodecFormat profile : [emailprotected]Format settings, CABAC : YesFormat settings, ReFrames : 4 framesMuxing mode : Header strippingCodec ID : VMPEG4/ISO/AVCDuration : 1h 46mnBit rate : 2 250 KbpsWidth : 1 920 pixelsHeight : 1 040 pixelsDisplay aspect ratio : 1.85:1Frame rate mode : ConstantFrame rate : 23.976 fpsColor space : YUVChroma subsampling : 4:2:0Bit depth : 8 bitsScan type : ProgressiveBits/(Pixel*Frame) : 0.047Stream size : 1.62 GiB (64%)Title : wWw.CinemaniaHD.orgWriting library : x264 core 130 r2273 b3065e6Encoding settings : cabac=1 / ref=3 / deblock=1:0:0 / analyse=03:0113 / me=hex / subme=7 / psy=1 / psyrd=1.00:0.00 / mixedref=1 / merange=16 / chromame=1 / trellis=1 / 8x8dct=1 / cqm=0 / deadzone=21,11 / fastpskip=1 / chromaqpoffset=-2 / threads=6 / lookaheadthreads=1 / slicedthreads=0 / nr=0 / decimate=1 / interlaced=0 / bluraycompat=0 / constrainedintra=0 / bframes=3 / bpyramid=2 / badapt=1 / bbias=0 / direct=1 / weightb=1 / opengop=0 / weightp=2 / keyint=240 / keyintmin=23 / scenecut=40 / intrarefresh=0 / rclookahead=40 / rc=2pass / mbtree=1 / bitrate=2250 / ratetol=1.0 / qcomp=0.60 / qpmin=0 / qpmax=69 / qpstep=4 / cplxblur=20.0 / qblur=0.5 / ipratio=1.40 / aq=1:1.00Default : YesForced : NoAudio #1ID : 2Format : AC-3Format/Info : Audio Coding 3Mode extension : CM (complete main)Format settings, Endianness : BigMuxing mode : Header strippingCodec ID : AAC3Duration : 1h 46mnBit rate mode : ConstantBit rate : 640 KbpsChannel(s) : 6 channelsChannel positions : Front: L C R, Side: L R, LFESampling rate : 48.0 KHzBit depth : 16 bitsCompression mode : LossyDelay relative to video : 100msStream size : 488 MiB (19%)Title : Espaol Latino [wWw.CinemaniaHD.org]Default : YesForced : NoAudio #2ID : 3Format : AC-3Format/Info : Audio Coding 3Mode extension : CM (complete main)Format settings, Endianness : BigMuxing mode : Header strippingCodec ID : AAC3Duration : 1h 46mnBit rate mode : ConstantBit rate : 512 KbpsChannel(s) : 6 channelsChannel positions : Front: L C R, Side: L R, LFESampling rate : 48.0 KHzBit depth : 16 bitsCompression mode : LossyStream size : 390 MiB (15%)Title : Ingles [wWw.CinemaniaHD.org]Default : NoForced : NoText #1ID : 4Format : UTF-8Codec ID : STEXT/UTF8Codec ID/Info : UTF-8 Plain TextTitle : wWw.CinemaniaHD.orgDefault : YesForced : NoText #2ID : 5Format : UTF-8Codec ID : STEXT/UTF8Codec ID/Info : UTF-8 Plain TextTitle : Subtitulos Espaol [wWw.CinemaniaHD.org]Default : NoForced : NoEnlaces De DescargaU2FsdGVkX1/EdYsXLCDSYOrLy8TSgiuvQF9YiXwMM4aqZ8yNEaGGF2YH1k2uTtlaSfJDCTwUQ7DUX65J3aA3WzFV2bpV7TW4fzj1LhDakk1BxS83HK9fh5fTjnW8bpZF4w3a/UvwEGFTNyNKDAxhY8JTtRq2uyRf3xbIkt1628fR+dv4UddWSkrz1w7TIfGSVq9TsGAhimuQjUuMTxuAFh0BHVaa0BWsFNqlIVVJvMMLi2kNXt6S3PrjOYcspuKZDvsBW8DoyIVJt/oGqMrW8Z1PU9tDopWPNp9dIIAmIloYA2znxQW927xw08fGQY799nJ9xlxtrYLXV2ODYn5SY+PqrirjIxwamyHSgSJj3aGw6zGM3mPMQjFKULop2Qo0vN+Est4Fj3Rhcpyy4LqtMCrIZH/mgyDEs3XkyWzjV+I=Predator 2 (1990) 1080pGeneralUnique ID :Complete name : Predator 2 (1990) 1080p Dual.mkvFormat : MatroskaFormat version : Version 2File size : 2.54 GiBDuration : 1h 48mnOverall bit rate : 3 363 KbpsMovie name : Predator 2 [1990][1080p Dual][wWw.CinemaniaHD.org]Encoded date : UTC 2013-05-31 23:24:10Writing application : mkvmerge v5.7.0 (?The Whirlwind?) built on Jul 8 2012 20:08:51Writing library : libebml v1.2.3 + libmatroska v1.3.0VideoID : 1Format : AVCFormat/Info : Advanced Video CodecFormat profile : [emailprotected]Format settings, CABAC : YesFormat settings, ReFrames : 4 framesMuxing mode : Header strippingCodec ID : VMPEG4/ISO/AVCDuration : 1h 48mnBit rate : 2 211 KbpsWidth : 1 920 pixelsHeight : 1 040 pixelsDisplay aspect ratio : 1.85:1Frame rate mode : ConstantFrame rate : 23.976 fpsColor space : YUVChroma subsampling : 4:2:0Bit depth : 8 bitsScan type : ProgressiveBits/(Pixel*Frame) : 0.046Stream size : 1.62 GiB (64%)Title : wWw.CinemaniaHD.orgWriting library : x264 core 130 r2273 b3065e6Encoding settings : cabac=1 / ref=3 / deblock=1:0:0 / analyse=03:0113 / me=hex / subme=7 / psy=1 / psyrd=1.00:0.00 / mixedref=1 / merange=16 / chromame=1 / trellis=1 / 8x8dct=1 / cqm=0 / deadzone=21,11 / fastpskip=1 / chromaqpoffset=-2 / threads=6 / lookaheadthreads=1 / slicedthreads=0 / nr=0 / decimate=1 / interlaced=0 / bluraycompat=0 / constrainedintra=0 / bframes=3 / bpyramid=2 / badapt=1 / bbias=0 / direct=1 / weightb=1 / opengop=0 / weightp=2 / keyint=240 / keyintmin=23 / scenecut=40 / intrarefresh=0 / rclookahead=40 / rc=2pass / mbtree=1 / bitrate=2211 / ratetol=1.0 / qcomp=0.60 / qpmin=0 / qpmax=69 / qpstep=4 / cplxblur=20.0 / qblur=0.5 / ipratio=1.40 / aq=1:1.00Default : YesForced : NoAudio #1ID : 2Format : AC-3Format/Info : Audio Coding 3Mode extension : CM (complete main)Format settings, Endianness : BigMuxing mode : Header strippingCodec ID : AAC3Duration : 1h 48mnBit rate mode : ConstantBit rate : 640 KbpsChannel(s) : 6 channelsChannel positions : Front: L C R, Side: L R, LFESampling rate : 48.0 KHzBit depth : 16 bitsCompression mode : LossyStream size : 494 MiB (19%)Title : Espaol Latino [wWw.CinemaniaHD.org]Default : YesForced : NoAudio #2ID : 3Format : AC-3Format/Info : Audio Coding 3Mode extension : CM (complete main)Format settings, Endianness : BigMuxing mode : Header strippingCodec ID : AAC3Duration : 1h 48mnBit rate mode : ConstantBit rate : 512 KbpsChannel(s) : 6 channelsChannel positions : Front: L C R, Side: L R, LFESampling rate : 48.0 KHzBit depth : 16 bitsCompression mode : LossyStream size : 396 MiB (15%)Title : Ingles [wWw.CinemaniaHD.org]Default : NoForced : NoText #1ID : 4Format : UTF-8Codec ID : STEXT/UTF8Codec ID/Info : UTF-8 Plain TextTitle : wWw.CinemaniaHD.orgDefault : YesForced : NoText #2ID : 5Format : UTF-8Codec ID : STEXT/UTF8Codec ID/Info : UTF-8 Plain TextTitle : Subtitulos Espaol [wWw.CinemaniaHD.org]Default : NoForced : NoEnlaces De DescargaU2FsdGVkX1/rUb9ba2ad7f9x3xMNja8DFUqObBM/w7GBE62YZkwf6lX6HEtjTNJrZIbgduaKthH091SFw1jTIjptCKHcaiMXMpI9dCe31FOxR3Bq+ocaOvvRI8KY4mjhCBGBNof4ZKORluPz9g5gc5HcUEYuuw0h5gQZpE0WQexKF0ZJsleLKzYxZbE5Y2mfHia3mouvvWvTbfuPdTOA9q2AUszBv800qUgKa1LoYwBkMz9idOiQvJwpBVm6YfBhxFnQ/LyEFr24q5GZmPCj44O+5gn0clXDyzg/ennOd1UB7CJbZH4a9L6WllTtTGmxIerDWWRBUS6I7Sl/+PrhZ1O/8ORBYbL39ZmhhJ9ypHzoDDkz62R0BXGyRl9pOrDd9MWS/AZGZB3kCmC/R8s5OIW6AEeg/7CQxsFcHPoZKqE=Predators 3 (2010) 1080pGeneralUnique ID :Complete name : Predators 3 (2010) 1080p Dual.mkvFormat : MatroskaFormat version : Version 2File size : 2.54 GiBDuration : 1h 46mnOverall bit rate : 3 400 KbpsMovie name : Predators [2010][1080p Dual][wWw.CinemaniaHD.org]Encoded date : UTC 2013-05-23 22:30:27Writing application : mkvmerge v5.7.0 (?The Whirlwind?) built on Jul 8 2012 20:08:51Writing library : libebml v1.2.3 + libmatroska v1.3.0VideoID : 1Format : AVCFormat/Info : Advanced Video CodecFormat profile : [emailprotected]Format settings, CABAC : YesFormat settings, ReFrames : 4 framesMuxing mode : Header strippingCodec ID : VMPEG4/ISO/AVCDuration : 1h 46mnBit rate : 2 248 KbpsWidth : 1 920 pixelsHeight : 832 pixelsDisplay aspect ratio : 2.35:1Frame rate mode : ConstantFrame rate : 23.976 fpsColor space : YUVChroma subsampling : 4:2:0Bit depth : 8 bitsScan type : ProgressiveBits/(Pixel*Frame) : 0.059Stream size : 1.63 GiB (64%)Title : wWw.CinemaniaHD.orgWriting library : x264 core 130 r2273 b3065e6Encoding settings : cabac=1 / ref=3 / deblock=1:0:0 / analyse=03:0113 / me=hex / subme=7 / psy=1 / psyrd=1.00:0.00 / mixedref=1 / merange=16 / chromame=1 / trellis=1 / 8x8dct=1 / cqm=0 / deadzone=21,11 / fastpskip=1 / chromaqpoffset=-2 / threads=6 / lookaheadthreads=1 / slicedthreads=0 / nr=0 / decimate=1 / interlaced=0 / bluraycompat=0 / constrainedintra=0 / bframes=3 / bpyramid=2 / badapt=1 / bbias=0 / direct=1 / weightb=1 / opengop=0 / weightp=2 / keyint=240 / keyintmin=23 / scenecut=40 / intrarefresh=0 / rclookahead=40 / rc=2pass / mbtree=1 / bitrate=2248 / ratetol=1.0 / qcomp=0.60 / qpmin=0 / qpmax=69 / qpstep=4 / cplxblur=20.0 / qblur=0.5 / ipratio=1.40 / aq=1:1.00Default : YesForced : NoAudio #1ID : 2Format : AC-3Format/Info : Audio Coding 3Mode extension : CM (complete main)Format settings, Endianness : BigMuxing mode : Header strippingCodec ID : AAC3Duration : 1h 46mnBit rate mode : ConstantBit rate : 640 KbpsChannel(s) : 6 channelsChannel positions : Front: L C R, Side: L R, LFESampling rate : 44.1 KHzBit depth : 16 bitsCompression mode : LossyStream size : 489 MiB (19%)Title : Espaol Latino [wWw.CinemaniaHD.org]Default : YesForced : NoAudio #2ID : 3Format : AC-3Format/Info : Audio Coding 3Mode extension : CM (complete main)Format settings, Endianness : BigMuxing mode : Header strippingCodec ID : AAC3Duration : 1h 46mnBit rate mode : ConstantBit rate : 512 KbpsChannel(s) : 6 channelsChannel positions : Front: L C R, Side: L R, LFESampling rate : 44.1 KHzBit depth : 16 bitsCompression mode : LossyStream size : 391 MiB (15%)Title : Ingles [wWw.CinemaniaHD.org]Default : NoForced : NoText #1ID : 4Format : UTF-8Codec ID : STEXT/UTF8Codec ID/Info : UTF-8 Plain TextTitle : wWw.CinemaniaHD.orgDefault : YesForced : NoText #2ID : 5Format : UTF-8Codec ID : STEXT/UTF8Codec ID/Info : UTF-8 Plain TextTitle : Subtitulos Espaol [wWw.CinemaniaHD.org]Default : NoForced : NoEnlaces De DescargaU2FsdGVkX1+WdYNWOIWsU0zVQYFd7h7AndPBUMOiMC5OtXAbUKHoK+TCHyosW8u5ncCCyKM52MMxAxtbJ4j/oWZ47jygJSEBBKmLkRYGD5KDXPb17jZcN/YOJg3bCkSUz++bx0jLRjzReQOfKsDv03xnEdnO3M7tY+xwZj2BDlR8MXdbu/7lbTT/rehXh7WOBQsV39IQvgZIPKoWx0YtC5HFkDqwxFDSBADEoXItjp2m/j+f9fmNFz5C4bW9X2WwD+zylkvPQIujgrpNZZngKY7fL12aHPuPywYAC0081/KetKDfeTfADlid3onL8bpHBM/8A5ojwZeVmVOYnDC0q6eGqAvjqGZGHy0IKHGGTlIJq7ULk3KVo2zV8H9al2s9MEyotwfm9PoQpkZmVeAb9L3ZGvwY0L/P6ajKlcfDUmI=Alien DC (1979) 1080pGeneralUnique ID :Complete name : Alien 1 Directors Cut (1979) 1080p Dual.mkvFormat : MatroskaFormat version : Version 2File size : 2.51 GiBDuration : 1h 56mnOverall bit rate : 3 080 KbpsMovie name : Alien Directors Cut [1979][1080p Dual][wWw.CinemaniaHD.org]Encoded date : UTC 2013-06-05 18:17:47Writing application : mkvmerge v5.7.0 (?The Whirlwind?) built on Jul 8 2012 20:08:51Writing library : libebml v1.2.3 + libmatroska v1.3.0VideoID : 1Format : AVCFormat/Info : Advanced Video CodecFormat profile : [emailprotected]Format settings, CABAC : YesFormat settings, ReFrames : 5 framesMuxing mode : Header strippingCodec ID : VMPEG4/ISO/AVCDuration : 1h 56mnBit rate : 1 992 KbpsWidth : 1 920 pixelsHeight : 816 pixelsDisplay aspect ratio : 2.35:1Frame rate mode : ConstantFrame rate : 23.976 fpsColor space : YUVChroma subsampling : 4:2:0Bit depth : 8 bitsScan type : ProgressiveBits/(Pixel*Frame) : 0.053Stream size : 1.57 GiB (63%)Title : wWw.CinemaniaHD.orgWriting library : x264 core 129 r2245 bc13772Encoding settings : cabac=1 / ref=5 / deblock=1:0:0 / analyse=03:0113 / me=hex / subme=7 / psy=1 / psyrd=1.00:0.00 / mixedref=1 / merange=16 / chromame=1 / trellis=1 / 8x8dct=1 / cqm=0 / deadzone=21,11 / fastpskip=1 / chromaqpoffset=-2 / threads=6 / lookaheadthreads=1 / slicedthreads=0 / nr=0 / decimate=1 / interlaced=0 / bluraycompat=0 / constrainedintra=0 / bframes=8 / bpyramid=2 / badapt=1 / bbias=0 / direct=1 / weightb=1 / opengop=0 / weightp=2 / keyint=240 / keyintmin=23 / scenecut=40 / intrarefresh=0 / rclookahead=40 / rc=2pass / mbtree=1 / bitrate=1992 / ratetol=1.0 / qcomp=0.60 / qpmin=10 / qpmax=51 / qpstep=4 / cplxblur=20.0 / qblur=0.5 / ipratio=1.40 / aq=1:1.00Default : YesForced : NoAudio #1ID : 2Format : AC-3Format/Info : Audio Coding 3Mode extension : CM (complete main)Format settings, Endianness : BigMuxing mode : Header strippingCodec ID : AAC3Duration : 1h 56mnBit rate mode : ConstantBit rate : 640 KbpsChannel(s) : 6 channelsChannel positions : Front: L C R, Side: L R, LFESampling rate : 44.1 KHzBit depth : 16 bitsCompression mode : LossyStream size : 534 MiB (21%)Title : Espaol Latino [wWw.CinemaniaHD.org]Default : YesForced : NoAudio #2ID : 3Format : AC-3Format/Info : Audio Coding 3Mode extension : CM (complete main)Format settings, Endianness : BigMuxing mode : Header strippingCodec ID : AAC3Duration : 1h 56mnBit rate mode : ConstantBit rate : 448 KbpsChannel(s) : 6 channelsChannel positions : Front: L C R, Side: L R, LFESampling rate : 44.1 KHzBit depth : 16 bitsCompression mode : LossyStream size : 374 MiB (15%)Title : Ingles [wWw.CinemaniaHD.org]Default : NoForced : NoText #1ID : 4Format : UTF-8Codec ID : STEXT/UTF8Codec ID/Info : UTF-8 Plain TextTitle : wWw.CinemaniaHD.orgDefault : YesForced : NoText #2ID : 5Format : UTF-8Codec ID : STEXT/UTF8Codec ID/Info : UTF-8 Plain TextTitle : Subtitulos Espaol [wWw.CinemaniaHD.org]Default : NoForced : NoEnlaces De DescargaU2FsdGVkX18WG6l1BdwrQswaYq3Y0exV1fO1Wae/Pp14Z5oNpEjdwJ1+9DhfyoV26+EiWLBG9nALj4tZli78wcyvP5k0BoxIV8e0Zhil2DmMbjcmzYRwegFbUV28roRVGRsFb0dzf3MxbypWCM+Jn5rVfhTWxtwd2Qt2ge0M+1CV4Bbqde6qx7qdJQPyL7TExAyhPOAkYePaS6Kj+cni3BWcOcDgp0o0NEKNpqccf4XgOBMYjq4eUOOLZR1u5ZxNC/rBtdy9Pll0fe7vQMEC+ALItxoIaFGm6A5oOk05TFFXw3ucuxP60avGCnjFvSyzmOqNZKTPcvX+QCbhiwlYO/5H7EyLhjUtSIJ5pU/JUZAiqMI3K0josiALNOrrU0zllHnJ7qHWT2EwizvS2p9Fcem5zCTx1zwwasQWPNOnPbA=Alien 2 DC (1986) 1080pGeneralUnique ID :Complete name : Alien 2 Directors Cut (1986) 1080p Dual.mkvFormat : MatroskaFormat version : Version 2File size : 2.79 GiBDuration : 2h 34mnOverall bit rate : 2 583 KbpsMovie name : Alien Directors Cut [1986][1080p Dual][wWw.CinemaniaHD.org]Encoded date : UTC 2013-06-05 22:56:59Writing application : mkvmerge v5.7.0 (?The Whirlwind?) built on Jul 8 2012 20:08:51Writing library : libebml v1.2.3 + libmatroska v1.3.0VideoID : 1Format : AVCFormat/Info : Advanced Video CodecFormat profile : [emailprotected]Format settings, CABAC : YesFormat settings, ReFrames : 4 framesMuxing mode : Header strippingCodec ID : VMPEG4/ISO/AVCDuration : 2h 34mnBit rate : 1 942 KbpsWidth : 1 920 pixelsHeight : 1 036 pixelsDisplay aspect ratio : 1.85:1Frame rate mode : ConstantFrame rate : 23.976 fpsColor space : YUVChroma subsampling : 4:2:0Bit depth : 8 bitsScan type : ProgressiveBits/(Pixel*Frame) : 0.041Stream size : 2.04 GiB (73%)Title : wWw.CinemaniaHD.orgWriting library : x264 core 129 r2245 bc13772Encoding settings : cabac=1 / ref=4 / deblock=1:0:0 / analyse=03:0113 / me=hex / subme=7 / psy=1 / psyrd=1.00:0.00 / mixedref=1 / merange=16 / chromame=1 / trellis=1 / 8x8dct=1 / cqm=0 / deadzone=21,11 / fastpskip=1 / chromaqpoffset=-2 / threads=6 / lookaheadthreads=1 / slicedthreads=0 / nr=0 / decimate=1 / interlaced=0 / bluraycompat=0 / constrainedintra=0 / bframes=8 / bpyramid=2 / badapt=1 / bbias=0 / direct=1 / weightb=1 / opengop=0 / weightp=2 / keyint=240 / keyintmin=23 / scenecut=40 / intrarefresh=0 / rclookahead=40 / rc=2pass / mbtree=1 / bitrate=1942 / ratetol=1.0 / qcomp=0.60 / qpmin=10 / qpmax=51 / qpstep=4 / cplxblur=20.0 / qblur=0.5 / ipratio=1.40 / aq=1:1.00Default : YesForced : NoAudio #1ID : 2Format : AC-3Format/Info : Audio Coding 3Mode extension : CM (complete main)Format settings, Endianness : BigMuxing mode : Header strippingCodec ID : AAC3Duration : 2h 34mnBit rate mode : ConstantBit rate : 320 KbpsChannel(s) : 6 channelsChannel positions : Front: L C R, Side: L R, LFESampling rate : 44.1 KHzBit depth : 16 bitsCompression mode : LossyStream size : 354 MiB (12%)Title : Espaol Latino [wWw.CinemaniaHD.org]Default : YesForced : NoAudio #2ID : 3Format : AC-3Format/Info : Audio Coding 3Mode extension : CM (complete main)Format settings, Endianness : BigMuxing mode : Header strippingCodec ID : AAC3Duration : 2h 34mnBit rate mode : ConstantBit rate : 320 KbpsChannel(s) : 6 channelsChannel positions : Front: L C R, Side: L R, LFESampling rate : 44.1 KHzBit depth : 16 bitsCompression mode : LossyStream size : 354 MiB (12%)Title : Ingles [wWw.CinemaniaHD.org]Default : NoForced : NoText #1ID : 4Format : UTF-8Codec ID : STEXT/UTF8Codec ID/Info : UTF-8 Plain TextTitle : wWw.CinemaniaHD.orgDefault : YesForced : NoText #2ID : 5Format : UTF-8Codec ID : STEXT/UTF8Codec ID/Info : UTF-8 Plain TextTitle : Subtitulos Espaol [wWw.CinemaniaHD.org]Default : NoForced : NoEnlaces De DescargaU2FsdGVkX19LnC2czA6+EejsMWN0IG9UYwuVHwRjtIFFO17E1d2AFXr3sNm2VU3zzFnxG56P7BZqFX/iusQ25kclJjADbZYCYSchGGxXJDsj8bDfjHGdX6XgDBI3avdFQEA1gbMzIpa3SBoZGTCMTlxJccwcQEvmnxTSHPWG+YtgsVX1elwERKNHoWnd9tIzFxVookl53kL/QzQJDxH/RHZE22oWOgU0YGav0y8TAteji071CbP1g83P3U0oCafAmp41Asdl1exKjdK6l7PdVOsTKgxohDjQFOX4c5IEJ986OfAeNJvmUtWpVQ8cUf8s7mOtoG7o4zSoF8MoivbaodNyXWmQXiN+NofqfLWKl3eTxhiJyeE+eM0SnIAS4LXet4dbCFE8MUHvUbzTr85/u2JzDoD5a2cypG9eOx9BXsjvkZhtiYauuGNTR9ah+xKwfDUftwHkt+Xb/41pXtbeEcyF3ylBF84SHXpEchV1Los=Alien 3 DC (1992) 1080pGeneralUnique ID :Complete name : Alien 3 Directors Cut (1992) 1080p Dual.mkvFormat : MatroskaFormat version : Version 2File size : 2.71 GiBDuration : 2h 24mnOverall bit rate : 2 676 KbpsMovie name : Alien Directors Cut [1992][1080p Dual][wWw.CinemaniaHD.org]Encoded date : UTC 2013-06-05 17:56:14Writing application : mkvmerge v5.7.0 (?The Whirlwind?) built on Jul 8 2012 20:08:51Writing library : libebml v1.2.3 + libmatroska v1.3.0VideoID : 1Format : AVCFormat/Info : Advanced Video CodecFormat profile : [emailprotected]Format settings, CABAC : YesFormat settings, ReFrames : 5 framesMuxing mode : Header strippingCodec ID : VMPEG4/ISO/AVCDuration : 2h 24mnBit rate : 1 972 KbpsWidth : 1 920 pixelsHeight : 810 pixelsDisplay aspect ratio : 2.40:1Frame rate mode : ConstantFrame rate : 23.976 fpsColor space : YUVChroma subsampling : 4:2:0Bit depth : 8 bitsScan type : ProgressiveBits/(Pixel*Frame) : 0.053Stream size : 1.94 GiB (72%)Title : wWw.CinemaniaHD.orgWriting library : x264 core 129 r2245 bc13772Encoding settings : cabac=1 / ref=5 / deblock=1:0:0 / analyse=03:0113 / me=hex / subme=7 / psy=1 / psyrd=1.00:0.00 / mixedref=1 / merange=16 / chromame=1 / trellis=1 / 8x8dct=1 / cqm=0 / deadzone=21,11 / fastpskip=1 / chromaqpoffset=-2 / threads=6 / lookaheadthreads=1 / slicedthreads=0 / nr=0 / decimate=1 / interlaced=0 / bluraycompat=0 / constrainedintra=0 / bframes=8 / bpyramid=2 / badapt=1 / bbias=0 / direct=1 / weightb=1 / opengop=0 / weightp=2 / keyint=240 / keyintmin=23 / scenecut=40 / intrarefresh=0 / rclookahead=40 / rc=2pass / mbtree=1 / bitrate=1972 / ratetol=1.0 / qcomp=0.60 / qpmin=10 / qpmax=51 / qpstep=4 / cplxblur=20.0 / qblur=0.5 / ipratio=1.40 / aq=1:1.00Default : YesForced : NoAudio #1ID : 2Format : AC-3Format/Info : Audio Coding 3Mode extension : CM (complete main)Format settings, Endianness : BigMuxing mode : Header strippingCodec ID : AAC3Duration : 2h 24mnBit rate mode : ConstantBit rate : 384 KbpsChannel(s) : 6 channelsChannel positions : Front: L C R, Side: L R, LFESampling rate : 48.0 KHzBit depth : 16 bitsCompression mode : LossyStream size : 398 MiB (14%)Title : Espaol Latino [wWw.CinemaniaHD.org]Default : YesForced : NoAudio #2ID : 3Format : AC-3Format/Info : Audio Coding 3Mode extension : CM (complete main)Format settings, Endianness : BigMuxing mode : Header strippingCodec ID : AAC3Duration : 2h 24mnBit rate mode : ConstantBit rate : 320 KbpsChannel(s) : 6 channelsChannel positions : Front: L C R, Side: L R, LFESampling rate : 48.0 KHzBit depth : 16 bitsCompression mode : LossyStream size : 332 MiB (12%)Title : Ingles [wWw.CinemaniaHD.org]Default : NoForced : NoText #1ID : 4Format : UTF-8Codec ID : STEXT/UTF8Codec ID/Info : UTF-8 Plain TextTitle : wWw.CinemaniaHD.orgDefault : YesForced : NoText #2ID : 5Format : UTF-8Codec ID : STEXT/UTF8Codec ID/Info : UTF-8 Plain TextTitle : Subtitulos Espaol [wWw.CinemaniaHD.org]Default : NoForced : NoEnlaces De DescargaU2FsdGVkX198hsSnMGXPMlSPKXq3iWyAMe2eUqSocFCHSf6vwtoL6z+y6aC9upnviI0s+y24v84aKLHkZADMvVP6m85k6M4Cm6oZ9gSJvSeguorkolKzDenc3FjThS/pjx1Js96yiCb3C/ZpQNCHSk2W+nZ5V8SCHShhEF8Fvz4cni2FVnDCs18PSB35uh5E83eodeRhLPzqPlXIrScjAYQqfJvAxyS9+scUauTZjSAV08gM2xa0FTVUoxJsaCfCDjDnQ9tVF+5VXko3gqEZ6Oc4HMmC44JAYZ8DZibv2PLZgOjjc2vb7JgKqsNJBNtN6BDDJcWjOiXh3XxTBDUMPdsPCR5tWuoAV9cI+fNLb4aET0+T7xdEC1nHV3m1oegY6iYwStnrOM+s/7fjv4IFWZCFZ2B5PEjhXB6SS7/Y7v4=Alien 4 Resurrection DC (1997) 1080pGeneralUnique ID :Complete name : Alien 4 Resurrection (1997) 1080p Dual.mkvFormat : MatroskaFormat version : Version 2File size : 2.39 GiBDuration : 1h 56mnOverall bit rate : 2 951 KbpsMovie name : Alien Resurrection Directors Cut [1997][1080p Dual][wWw.CinemaniaHD.org]Encoded date : UTC 2013-06-05 21:43:27Writing application : mkvmerge v5.7.0 (?The Whirlwind?) built on Jul 8 2012 20:08:51Writing library : libebml v1.2.3 + libmatroska v1.3.0VideoID : 1Format : AVCFormat/Info : Advanced Video CodecFormat profile : [emailprotected]Format settings, CABAC : YesFormat settings, ReFrames : 5 framesMuxing mode : Header strippingCodec ID : VMPEG4/ISO/AVCDuration : 1h 56mnBit rate : 1 992 KbpsWidth : 1 920 pixelsHeight : 824 pixelsDisplay aspect ratio : 2.35:1Frame rate mode : ConstantFrame rate : 23.976 fpsColor space : YUVChroma subsampling : 4:2:0Bit depth : 8 bitsScan type : ProgressiveBits/(Pixel*Frame) : 0.053Stream size : 1.57 GiB (65%)Title : wWw.CinemaniaHD.orgWriting library : x264 core 129 r2245 bc13772Encoding settings : cabac=1 / ref=5 / deblock=1:0:0 / analyse=03:0113 / me=hex / subme=7 / psy=1 / psyrd=1.00:0.00 / mixedref=1 / merange=16 / chromame=1 / trellis=1 / 8x8dct=1 / cqm=0 / deadzone=21,11 / fastpskip=1 / chromaqpoffset=-2 / threads=6 / lookaheadthreads=1 / slicedthreads=0 / nr=0 / decimate=1 / interlaced=0 / bluraycompat=0 / constrainedintra=0 / bframes=8 / bpyramid=2 / badapt=1 / bbias=0 / direct=1 / weightb=1 / opengop=0 / weightp=2 / keyint=240 / keyintmin=23 / scenecut=40 / intrarefresh=0 / rclookahead=40 / rc=2pass / mbtree=1 / bitrate=1992 / ratetol=1.0 / qcomp=0.60 / qpmin=10 / qpmax=51 / qpstep=4 / cplxblur=20.0 / qblur=0.5 / ipratio=1.40 / aq=1:1.00Default : YesForced : NoAudio #1ID : 2Format : AC-3Format/Info : Audio Coding 3Mode extension : CM (complete main)Format settings, Endianness : BigMuxing mode : Header strippingCodec ID : AAC3Duration : 1h 56mnBit rate mode : ConstantBit rate : 512 KbpsChannel(s) : 6 channelsChannel positions : Front: L C R, Side: L R, LFESampling rate : 48.0 KHzBit depth : 16 bitsCompression mode : LossyStream size : 425 MiB (17%)Title : Espaol Latino [wWw.CinemaniaHD.org]Default : YesForced : NoAudio #2ID : 3Format : AC-3Format/Info : Audio Coding 3Mode extension : CM (complete main)Format settings, Endianness : BigMuxing mode : Header strippingCodec ID : AAC3Duration : 1h 56mnBit rate mode : ConstantBit rate : 448 KbpsChannel(s) : 6 channelsChannel positions : Front: L C R, Side: L R, LFESampling rate : 48.0 KHzBit depth : 16 bitsCompression mode : LossyStream size : 372 MiB (15%)Title : Ingles [wWw.CinemaniaHD.org]Default : NoForced : NoText #1ID : 4Format : UTF-8Codec ID : STEXT/UTF8Codec ID/Info : UTF-8 Plain TextTitle : wWw.CinemaniaHD.orgDefault : YesForced : NoText #2ID : 5Format : UTF-8Codec ID : STEXT/UTF8Codec ID/Info : UTF-8 Plain TextTitle : Subtitulos Espaol [wWw.CinemaniaHD.org]Default : NoForced : NoEnlaces De DescargaU2FsdGVkX1/E04RLVnCKOzDeSAPXvDb+zLAl3QKLC7AuBwBMvwxJlQ1Fv1V3pyRmlUJR7nBHrBvemva19r68VWs6H/xf768L2q39d5qiyyeoZQnGrj7l6JgwUeMtNvbH33IhYmzwachAoNJGzoDtVtGS7+O5uaT2oMMaqixEMLUEQi0RzN+G9yIC3emJPrKbZ+uItmUHiwsunu7hR1qkG3vc/ifBDNxQPhmOTTuhBHDEAbXKS2cxkdZPkBsUPIZktzC/tsbmEqeciIQhT14x34KbrFgPJOyNFg5C7yStpT4u/8uFY/BeU6JET5usDVBG5qTjZBOjq0phrDe11PQ02GjZMePk+ZwE9bqF0kCRFzhLgsMxVLfkFKphkd0nQtQdhp/pZKnuNrjo+pdlfE3WwXbrvWBCBoCeT49t+YbStBs=CinemaniaHD.org. middle. flash. Rating is available when the video has been rented. Random Vids Guy 169 viewsNew 6:37 Archie vs. fcca2f3a81

uzayda dehset 720p vs 1080p
running man 152 eng sub 720p or 1080i
masterchef us s05e12 720p hdtv x264-dimension
punjabi song hd 1080p 2014 super
hokkabaz tek parca 720p vs 1080i
ant bully 1080p latino comedians
game of thrones s04e02 subs 720p or 1080p
khaleja movie video songs hd 1080p
keepvid won t download 1080p wallpapers
a nightmare on elm street 720p hd

Yorum Yaz
Arkadaşların Burada !
Arkadaşların Burada !